Клип Yeah yeah yeahs - heads will roll (Головы закружатся) - Клипы - СКАЧАТЬ КЛИПЫ БЕСПЛАТНО - BAM.DO.AM
Главная » Статьи » Клипы

Клип Yeah yeah yeahs - heads will roll (Головы закружатся)
Здесь вы можете скачать Клип Yeah yeah yeahs - heads will roll

Format/Info : Audio Video Interleave
File size : 3.01 MiB
Duration : 3mn 43s
Overall bit rate : 334 Kbps
Movie name : 22.flv

Video #0
ID : 0
Format : MPEG-4 Visual
Format profile : 5imple(g>Ll
Format settings, EVOP : No
Format settings, QPel : No
Format settings, GMC : No warppomts
Format settings, Matrix : Default (H.263)
Codec ID : DX5Q
Codec ID/Hint : DivX 5
Duration : 3mn 43s
Bit rate : 589 Kbps
Width : 384 pixels
Height : 288 pixels
Display aspect ratio : 4:3
Frame rate : 25.000 fps
Resolution : 24 bits
Colonmetry : 4:2:0
Scan type : Progressive
Bits/(Pixel*Frame) : 0.213
Stream size : 2.66MiB(88%)
Writing library : S

Audio #1
ID : 1
Format : MPEG Audio
Format version : Version 2
Format profile : Layer 3
Codec ID : 55
Codec ID/Hint : MP3
Duration : 3mn 43s
Bit rate mode : Constant
Bit rate : 64.0 Kbps
Channel(s) : 2 channels
Sampling rate : 22.05 KHz
Resolution : 16 bits
Stream size : 296KiB(10%)
Alignment : Aligned on interleaves
Interleave, duration : 26 ms (0.65 video frame)
Writing library : LAME3.97

Клип Yeah yeah yeahs - heads will roll (Головы закружатся)

Скачать бесплатно Клип Yeah yeah yeahs - heads will roll









Вы заметили, что для того чтобы скачать бесплатно музыку на нашем сайте не нужно набирать неразборчивый защитный код или переходить на какой-нибудь наглый файлообменник.
Скачивая этот клип, вы тем самым обязуетесь, что не будете использовать его в коммерческих целях. И обязуетесь, что совершенно добровольно уберёте его со своего компьютера сразу после того, как прослушаете.
Уважаемый пользователь, на нашем сайте вы также сможете ознакомиться с текст песни Yeah yeah yeahs - heads will roll (Головы закружатся).

Категория: Клипы | Добавил: admin (01.07.2010)
Просмотров: 234