Клип Solo - Iyaz (Соло Яз) - Клипы - СКАЧАТЬ КЛИПЫ БЕСПЛАТНО - BAM.DO.AM
Главная » Статьи » Клипы

Клип Solo - Iyaz (Соло Яз)
Здесь вы можете скачать бесплатно Клип Solo - Iyaz

Format/Info : Audio Video Interleave
File size : 3.01 MiB
Duration : 3mn 45s
Overall bit rate : 334 Kbps
Movie name : 22.flv
Director : created.with.5UP

Video #0
ID : 0
Format : MPEG-4 Visual
Format profile : 5imple(g>Ll
Format settings, EVOP : No
Format settings, QPel : No
Format settings, GMC : No warppomts
Format settings, Matrix : Default (H.263)
Codec ID : DX5Q
Codec ID/Hint : DivX 5
Duration : 3mn 45s
Bit rate : 589 Kbps
Width : 384 pixels
Height : 288 pixels
Display aspect ratio : 4:3
Frame rate : 25.000 fps
Resolution : 24 bits
Colonmetry : 4:2:0
Scan type : Progressive
Bits/(Pixel*Frame) : 0.213
Stream size : 2.66MiB(88%)

Audio #1
ID : 1
Format : MPEG Audio
Format version : Version 2
Format profile : Layer 3
Codec ID : 55
Codec ID/Hint : MP3
Duration : 3mn 45s
Bit rate mode : Constant
Bit rate : 64.0 Kbps
Channel(s) : 2 channels
Sampling rate : 22.05 KHz
Resolution : 16 bits
Stream size : 296KiB(10%)
Alignment : Aligned on interleaves
Interleave, duration : 26 ms (0.65 video frame)
Writing library : LAME3.97

Клип Solo - Iyaz (Соло Яз)











Скачивая этот клип, вы тем самым обязуетесь, что не будете использовать его в коммерческих целях. И обязуетесь, что совершенно добровольно уберёте его со своего компьютера сразу после того, как прослушаете.
Уважаемый пользователь, на нашем сайте вы также сможете ознакомиться с текст песни Solo - Iyaz (Соло Яз).

Скачать бесплатно Клип Solo - Iyaz (Соло Яз)

Категория: Клипы | Добавил: admin (11.07.2010)
Просмотров: 191