Клип Selena gomez and the scene - round and round (Селена Гомес) - Клипы - СКАЧАТЬ КЛИПЫ БЕСПЛАТНО - BAM.DO.AM
Главная » Статьи » Клипы

Клип Selena gomez and the scene - round and round (Селена Гомес)
Клип Selena gomez and the scene - round and round (Селена Гомес)

Скачать бесплатно Клип Selena gomez and the scene - round and round (Селена Гомес)









Милый друг,
Клип Selena gomez and the scene - round and round (Селена Гомес) предоставлен тебе, только в ознакомительных целях.
Коллектив нашего прекрасного сайта желает вам самых приятных минут во время просматривания этого клипа. Если вам не трудно, то вы можете поделиться со своими друзьями и близкими информацией о нашем сайте.
Ведь вы заметили, что для того чтобы скачать бесплатно музыку на нашем сайте не нужно набирать неразборчивый защитный код или переходить на какой-нибудь наглый файлообменник.
Скачивая этот клип, вы тем самым обязуетесь, что не будете использовать его в коммерческих целях. И обязуетесь, что совершенно добровольно уберёте его со своего компьютера сразу после того, как прослушаете.
Уважаемый пользователь, на нашем сайте вы также сможете ознакомиться с текст песни.

Информация о видео:

Format : Windows Media
File size : 14.5 MiB
Duration : 3mn 26s
Overall bit rate mode : Constant
Overall bit rate : 549 Kbps
Maximum Overall bit rate : 585 Kbps
Encoded date : UTC 2009-04-09 11:36:34.310
Application : Windows Movie Maker 2.1.4026.0 Video #2
ID : 2
Format : VC-1
Format profile : MP@LL
Codec ID : WMV3
Codec ID/Info : Windows Media Video 9
Codec ID/Hint : WMV3
Description of the codec : Windows Media Video 9
Duration : 3mn 26s
Bit rate mode : Constant
Bit rate : 512 Kbps
Width : 320 pixels
Height : 240 pixels
Display aspect ratio : 4:3
Frame rate : 25.000 fps
Resolution : 24 bits
Scan type : Progressive
Bits/(Pixel*Frame) : 0.267
Stream size : 13.5MiB(93%)
Language : Russian Audio #1
ID : 1
Format : WMA2
Format profile : LI
Codec ID : 161
Codec ID/Info : Windows Media Audio 2
Description of the codec : Windows Media Audio 9.
Duration : 3mn 26s
Bit rate mode : Constant
Bit rate : 64.0 Kbps
Channel(s) : 2 channels
Sampling rate : 44.1 KHz
Resolution : 16 bits
Stream size : 1.69MiB(12%)

Категория: Клипы | Добавил: admin (03.07.2010)
Просмотров: 1302