Клип Рома Кенга - Высоко(Roma Kenga) - Клипы - СКАЧАТЬ КЛИПЫ БЕСПЛАТНО - BAM.DO.AM
Главная » Статьи » Клипы

Клип Рома Кенга - Высоко(Roma Kenga)
Клип Рома Кенга - Высоко(Roma Kenga)

Тут можно скачать Клип Рома Кенга - Высоко









Милый друг, уважаемые господа, товарищи, леди энд джентельмены !!!

Милый друг,
Клип Рома Кенга - Высоко предоставлен тебе, только в ознакомительных целях.
Коллектив нашего прекрасного сайта желает вам самых приятных минут во время просматривания этого клипа. Если вам не трудно, то вы можете поделиться со своими друзьями и близкими информацией о нашем сайте.
Ведь вы заметили, что для того чтобы скачать бесплатно музыку на нашем сайте не нужно набирать неразборчивый защитный код или переходить на какой-нибудь наглый файлообменник.

Format : Flash Videc
File size : 19.0MiB
Duration : 3mn 45s
Overall bit rate : 854 Kbps
httphostheader : r7.lhr

Video
Format : AVC
Format/Info : Advanced Video Codec
Format profile : Mam@L3.0
Format settings, CAEAC : Yes
Format settings, ReFrames : 3 fram
Muxmg mode : Container
Duration : 3mn 45s
Bit rate : 722 Kbps
Width : 640 pixels
Height : 480 pixels
Display aspect ratio : 4:3
Frame rate mode : Variable
Frame rate : 25.000 fps
Resolution : 24 bits
Colonmetry : 4:2:0
Scan type : Progressive
Bits/(Pixel*Frame) : 0.094
Stream size : 16.0MiB(84%)

Audio
Format : AAC
Format/Info : Advanced
Format version : Version 4
Format profile : LC
Format settings, SBP : No
Duration : 3mn 45s
Bit rate : 125 Kbps
Channel(s) : 2 channels
Channel positions : L P
Sampling rate : 44.1 KHz
Resolution : 16 bits
Stream size : 2.78MiB(15%)

Скачать Клип Рома Кенга - Высоко

Категория: Клипы | Добавил: admin (10.07.2010)
Просмотров: 670