Клип Лавика - Подруга (Зубки) - Клипы - СКАЧАТЬ КЛИПЫ БЕСПЛАТНО - BAM.DO.AM
Главная » Статьи » Клипы

Клип Лавика - Подруга (Зубки)
Тут можно скачать Клип Лавика - Подруга (Зубки)











Милый друг,
Клип Лавика - Подруга (Зубки) предоставлен тебе, только в ознакомительных целях.
Коллектив нашего прекрасного сайта желает вам самых приятных минут во время просматривания этого клипа. Если вам не трудно, то вы можете поделиться со своими друзьями и близкими информацией о нашем сайте.
Ведь вы заметили, что для того чтобы скачать бесплатно музыку на нашем сайте не нужно набирать неразборчивый защитный код или переходить на какой-нибудь наглый файлообменник.

Информация о видео:

Format/Info : Audio Video Interleave
File size : 16.6 MiB
Duration : 2mn 59s
Overall bit rate : 244 Kbps
Director :
Writing application :
ID : 0
Format : MPEG-4 Visual
Format profile : 5imple(g>Ll
Format settings, EVOP : No
Format settings, QPel : No
Format settings, GMC : No warppomts
Format settings, Matrix : Default (H.263)
Codec ID : DX5Q
Codec ID/Hint : DivX 5
Duration : 2mn 59s
Bit rate : 379 Kbps
Width : 320 pixels
Height : 240 pixels
Display aspect ratio : 4:3
Frame rate : 25.000 fps
Resolution : 24 bits
Colonmetry : 4:2:0
Scan type : Progressive
Bits/(Pixel*Frame) : 0.198
Stream size : 12.9MiB(78%)
Writing library :
Audio #1
ID : 1
Format : MPEG Audio
Format version : Version 2
Format profile : Layer 3
Codec ID : 55
Codec ID/Hint : MP3
Duration : 2mn 59s
Bit rate mode : Constant
Bit rate : 96.0 Kbps
Channel(s) : 2 channels
Sampling rate : 22.05 KHz
Resolution : 16 bits
Stream size : 3.27MiB(20%)
Alignment : Aligned on interleaves
Interleave, duration : 26 ms (0.65 video frame)
Interleave, preload duration : 522 ms
Writing library : LAME3.97

Скачать бесплатно Клип Лавика - Подруга (Зубки)

Категория: Клипы | Добавил: admin (01.07.2010)
Просмотров: 608