Клип Katy perry - teenage dream - Клипы - СКАЧАТЬ КЛИПЫ БЕСПЛАТНО - BAM.DO.AM
Главная » Статьи » Клипы

Клип Katy perry - teenage dream
Здесь скачать бесплатно Клип Katy perry - teenage dream

Информация о видео:

Format : AVI
Format/Info : Audio Video Interleave
File size : 2.15 MiB
Duration : 4m 00s
Overall bit rate : 328 Kbps
Movie name : 122.flv
Director : created.with

Video #0
ID : 0
Format : MPEG-4 Visual
Format profile : 5imple(g>Ll
Format settings, EVOP : No
Format settings, QPel : No
Format settings, GMC : No warppomts
Format settings, Matrix : Default (H.263)
Codec ID : DX50
Codec ID/Hint : DivX 5
Duration : 4m 00s
Bit rate : 581 Kbps
Width : 384 pixels
Height : 288 pixels
Display aspect ratio : 4:3
Frame rate : 25.000 fps
Resolution : 24 bits
Colonmetry : 4:2:0
Scan type : Progressive
Bits/(Pixel*Frame) : 0.210
Stream size : 1.89MiB(88%)
Writing librar

Audio #1
ID : 1
Format : MPEG Audio
Format version : Version 2
Format profile : Layer 3
Codec ID : 55
Codec ID/Hint : MP3
Duration : 4m 00s
Bit rate mode : Constant
Bit rate : 64.0 Kbps
Channel(s) : 2 channels
Sampling rate : 22.05 KHz
Resolution : 16 bits
Stream size : 214KiB(10%)
Alignment : Aligned on interleaves
Interleave, duration : 26 ms (0.65 video frame)


Скачать бесплатно клип Katy Perry - Teenage Dream

Милый друг,
Клип Katy perry - teenage dream предоставлен тебе, только в ознакомительных целях.
Коллектив нашего прекрасного сайта желает вам самых приятных минут во время просматривания этого клипа. Если вам не трудно, то вы можете поделиться со своими друзьями и близкими информацией о нашем сайте.
Ведь вы заметили, что для того чтобы скачать бесплатно музыку на нашем сайте не нужно набирать неразборчивый защитный код или переходить на какой-нибудь наглый файлообменник.

Категория: Клипы | Добавил: admin (03.08.2010)
Просмотров: 415