Клип katy perry and snoop dogg - california girls - Клипы - СКАЧАТЬ КЛИПЫ БЕСПЛАТНО - BAM.DO.AM
Главная » Статьи » Клипы

Клип katy perry and snoop dogg - california girls
Скачать клип










Милый друг,
Клип katy perry and snoop dogg - california girls предоставлен тебе, только в ознакомительных целях.
Коллектив нашего прекрасного сайта желает вам самых приятных минут во время просматривания этого клипа. Если вам не трудно, то вы можете поделиться со своими друзьями и близкими информацией о нашем сайте.
Ведь вы заметили, что для того чтобы скачать бесплатно музыку на нашем сайте не нужно набирать неразборчивый защитный код или переходить на какой-нибудь наглый файлообменник.
Скачивая этот клип, вы тем самым обязуетесь, что не будете использовать его в коммерческих целях. И обязуетесь, что совершенно добровольно уберёте его со своего компьютера сразу после того, как прослушаете.

Информация о видео:

Format : AVI
Format/Info : Audio Video Interleave
File size : 3.71 MiB
Duration : 4mn 00s
Overall bit rate : 380 Kbps
Director : created.with.5UPEP©.v2QQ8.bid.33
Writing application : SUPEP© - by ePightSoft Video #0
ID : 0
Format : MPEG-4 Visual
Format profile : 5imple(g>Ll
Format settings, EVOP : No
Format settings, QPel : No
Format settings, GMC : No warppomts
Format settings, Matrix : Default (H.263)
Codec ID : DX5Q
Codec ID/Hint : DivX 5
Duration : 4mn 00s
Bit rate : 650 Kbps
Width : 320 pixels
Height : 240 pixels
Display aspect ratio : 4:3
Frame rate : 25.000 fps
Resolution : 24 bits
Colonmetry : 4:2:0
Scan type : Progressive
Bits/(Pixel*Frame) : 0.339
Stream size : 3.18MiB(86%)
Writing library : SUPEP© Audio #1
ID : 1
Format : MPEG Audio
Format version : Version 2
Format profile : Layer 3
Codec ID : 55
Codec ID/Hint : MP3
Duration : 4mn 00s
Bit rate mode : Constant
Bit rate : 96.0 Kbps
Channel(s) : 2 channels
Sampling rate : 22.05 KHz
Resolution : 16 bits
Stream size : 479KiB(13%)
Alignment : Aligned on interleaves
Interleave, duration : 26 ms (0.65 video frame)
Interleave, preload duration : 522 ms

Категория: Клипы | Добавил: admin (13.06.2010)
Просмотров: 420