Клип Inna - sun is up (Инна mp3) - Клипы - СКАЧАТЬ КЛИПЫ БЕСПЛАТНО - BAM.DO.AM
Главная » Статьи » Клипы

Клип Inna - sun is up (Инна mp3)








Милый друг, уважаемые господа, товарищи, леди энд джентельмены !!!

К нашему и вашему величайшему горю клип Inna - sun is up сейчас пока выглядит
так, как вы его видите.
Приносим вам глубочайшие извинения за это недоразумение.
Одновременно с этим мы вам выдаем сто процентную гарантию, что как только появится фирменный, официальный клип на эту композицию, то мы вам предоставим возможность скачать абсолютно бесплатно клип Inna - sun is up (Инна mp3).
Но сейчас пока мы можем предоставить вам возможность скачать бесплатно mp3 Inna - sun is up (Инна mp3). Для этого воспользуйтесь окном поиска на нашем сайте.

Информация о видео:

Format/Info : Audio Video Interleave
File size : 667 KiB
Duration : 3m 43s
Overall bit rate : 418 Kbps
Movie name : 11111.flv
Dir

Video #0
ID : 0
Format : MPEG-4 Visual
Format profile : 5imple(g>Ll
Format settings, EVOP : No
Format settings, QPel : No
Format settings, GMC : No warppomts
Format settings, Matrix : Default (H.263)
Codec ID : DX5Q
Codec ID/Hint : DivX 5
Duration : 3m 43s
Bit rate : 744 Kbps
Width : 384 pixels
Height : 288 pixels
Display aspect ratio : 4:3
Frame rate : 25.000 fps
Resolution : 24 bits
Colonmetry : 4:2:0
Scan type : Progressive
Bits/(Pixel*Frame) : 0.265
Stream size : 596 KiB (89%)

Audio #1
ID : 1
Format : MPEG Audio
Format version : Version 2
Format profile : Layer 3
Codec ID : 55
Codec ID/Hint : MP3
Duration : 3m 43s
Bit rate mode : Constant
Bit rate : 64.0 Kbps
Channel(s) : 2 channels
Sampling rate : 22.05 KHz
Resolution : 16 bits
Stream size : 51.0KiB(8%)
Alignment : Aligned on interleaves
Interleave, duration : 26 ms (0.66 video frame)
Writing library : LAME3.97

Категория: Клипы | Добавил: admin (06.07.2010)
Просмотров: 642