Клип Hollywood - Кап Кап - Клипы - СКАЧАТЬ КЛИПЫ БЕСПЛАТНО - BAM.DO.AM
Главная » Статьи » Клипы

Клип Hollywood - Кап Кап
Здесь можно скачать клип Hollywood - Кап Кап

Информация о клипе :

Complete name : Hollywood - Кап Кап
Format : Flash Video
File size : 11.5 MiB
Duration : 3mn 40s
Overall bit rate : 436 Kbps
httphostheader : vl 8. Iscache6.c
исполнитель -Hollywood
песня - Кап Кап

Video
Format : AVC
Format/Info : Advanced Video Codec

Клип Hollywood - Кап Кап

Format profile : Mam@L1.3
Format settings, CAEAC : Yes
Format settings, ReFrames : 3 frames
Muxmg mode : Container profile=Unknowmii 1.3
Duration : 3mn 40s
Bit rate : 310 Kbps
Width : 320 pixels
Height : 240 pixels
Display aspect ratio : 4:3
Frame rate : 29.970 fps
Resolution : 24 bits
Colonmetry : 4:2:0
Scan type : Progressive
Bits/(Pixel*Frame) : 0.135
Stream size : 8.15MiB(71%)

Audio
Format : AAC
Format/Info : Advanced Audio Codec
Format version : Version 4
Format profile : LC
Format settings, SEP : No
Duration : 3mn 40s
Bit rate : 117Kbps
Channel(s) : 2 channels
Channel positions : L P
Sampling rate : 44.1 KHz
Resolution : 16 bits
Stream size : 3.08MiB(27%)










Уважаемые люди, этот клип, который носит название Hollywood - Кап Кап мы бесплатно предлагаем для того, чтобы вы могли им насладиться.
Если вам будет не затруднительно, то вы можете поделиться со своими друзьями информацией о нашем распрекрасном сайте.

Скачать бесплатно Клип Hollywood - Кап Кап

Категория: Клипы | Добавил: admin (24.10.2010)
Просмотров: 305 | Теги: Скачать Клип Hollywood - Кап Кап, Клип Hollywood - Кап Кап