Клип Hollywood fm - Доверчивая (голливуд fm) - Клипы - СКАЧАТЬ КЛИПЫ БЕСПЛАТНО - BAM.DO.AM
Главная » Статьи » Клипы

Клип Hollywood fm - Доверчивая (голливуд fm)
На этой странице можно скачать Клип Hollywood fm - Доверчивая

Клип Hollywood fm - Доверчивая











Милый друг,
Клип Hollywood fm - Доверчивая (голливуд fm) предоставлен тебе, только в ознакомительных целях.
Коллектив нашего прекрасного сайта желает вам самых приятных минут во время просматривания этого клипа. Если вам не трудно, то вы можете поделиться со своими друзьями и близкими информацией о нашем сайте.
Ведь вы заметили, что для того чтобы скачать бесплатно музыку на нашем сайте не нужно набирать неразборчивый защитный код или переходить на какой-нибудь наглый файлообменник.
Скачивая этот клип, вы тем самым обязуетесь, что не будете использовать его в коммерческих целях. И обязуетесь, что совершенно добровольно уберёте его со своего компьютера сразу после того, как прослушаете.

Информация о видео:

Format : Flash Video File size : 17.2 MiB Duration : 3mn 14s Overall bit rate : 777 Kbps
Video
Format : H.263 Duration : 3mn 14s Bit rate : 642 Kbps Width : 480 pixels Height : 300 pixels Display aspect ratio : 1.600 Frame rate : 1 OOO.OOOfps Bits/(Pixel*Frame) : 0.004 Stream size : 14.2MiB(83%)
Audio
Format : MPEG Audio Format version : Version 1 Format profile : Layer 3 Duration : 3mn 14s Bit rate mode : Constant Bit rate : 96.0 Kbps Channel(s) : 1 channel Sampling rate : 44.1 KHz Resolution : 16 bits Stream size : 2.12MiB(12%) Writing library : LAME

Скачать бесплатно Клип Hollywood fm - Доверчивая (голливуд fm)

Категория: Клипы | Добавил: admin (03.07.2010)
Просмотров: 745