Клип Hallelujah - Lee DeWyze (Алелуя) - Клипы - СКАЧАТЬ КЛИПЫ БЕСПЛАТНО - BAM.DO.AM
Главная » Статьи » Клипы

Клип Hallelujah - Lee DeWyze (Алелуя)
Format/Info : Audio Video Interleave
File size : 16.1 MiB
Продолжительность: 6mn 12s
Overall Битрейт: 508 Kbps
Director : created.with.5UPQ8.bid.33
Writing application : SUPoft

Video #0
ID : 0
Формат: MPEG-4 Visual
Format profile : 5imple(g>Ll
Format settings, EVOP : No
Format settings, QPel : No
Форматsettings, GMC : No warppomts
Format settings, Matrix : Default (H.263)
Codec ID : DX5Q
Codec ID/Hint : DivX 5
Продолжительность: 6mn 12s
Битрейт: 907 Kbps
Ширина: 320 pixels
Высота: 240 pixels
Display aspect ratio : 4:3
Frame rate : 25.000 fps
Resolution : 24 bits
Colonmetry : 4:2:0
Scan type : Progressive
Bits/(Pixel*Frame) : 0.472
Stream size : 14.4MiB(89%)
Writing library : SUPEP©

Audio #1
ID : 1
Формат: MPEG Audio
Format version : Version 2
Format profile : Layer 3
Codec ID : 55
Codec ID/Hint : MP3
Продолжительность: 6mn 12s
Битрейтmode : Constant
Битрейт: 96.0 Kbps
Channel(s) : 2 channels
Sampling rate : 22.05 KHz
Resolution : 16 bits
Stream size : 1.52MiB(9%)
Alignment : Aligned on interleaves
Interleave, duration : 26 ms (0.65 video frame)
Interleave, preload duration : 522 ms
Writing library : LAME3.97









Милый друг, уважаемые господа, товарищи, леди энд джентельмены !!!

К нашему и вашему величайшему горю клип Hallelujah - Lee DeWyze (Алелуя) сейчас пока выглядит
так, как вы его видите.
Приносим вам глубочайшие извинения за это недоразумение.
Одновременно с этим мы вам выдаем сто процентную гарантию, что как только появится фирменный, официальный клип на эту композицию, то мы вам предоставим возможность скачать абсолютно бесплатно клип Hallelujah - Lee DeWyze (Алелуя).
Но сейчас пока мы можем предоставить вам возможность скачать бесплатно mp3 Hallelujah - Lee DeWyze (Алелуя). Для этого воспользуйтесь окном поиска на нашем сайте.

Категория: Клипы | Добавил: admin (21.06.2010)
Просмотров: 241