Клип группы Хаки - 20 00 - Клипы - СКАЧАТЬ КЛИПЫ БЕСПЛАТНО - BAM.DO.AM
Главная » Статьи » Клипы

Клип группы Хаки - 20 00
Тута мона послушать бесплатно Клип группы Хаки - 20 00

Информация о видео:

Format : Windows Media
File size : 17.0 MiB
Продолжительность: 3mn 28s
Overall bit rate mode : Constant
Overall bit rate : 1 071 Kbps
Maximum Overall bit rate : 1 982 Kbps
Encoded date : UTC 2008-12-23 19:38:10.875
Application : Wi026.0

Video #2
ID : 2
Format : VC-1
Format profile : MP@LL
Codec ID : WMV3
Codec ID/Info : Windows Media Video 9
Codec ID/Hint : WMV3
Description of the codec : Windows Media Video 9
Продолжительность: 3mn 28s
Bit rate mode : Constant
Bit rate : 1 900 Kbps
Width : 320 pixels
Height : 240 pixels
Display aspect ratio : 4:3
Frame rate : 25.000 fps
Resolution : 24 bits
Scan type : Progressive
Bits/(Pixel*Frame) : 0.990
Stream size : 30.2 MiB
Language : Russian

Audio #1
ID : 1
Format : WMA2
Format profile : LI
Codec ID : 161
Codec ID/Info : Windows Media

Audio 2
Description of the codec : Windows Media
Audio 9.1 - 64 kbps, 44 kHz,
stereo (A/V) 1-pass CBP
Продолжительность: 3mn 28s
Bit rate mode : Constant
Bit rate : 64.0 Kbps
Channel(s) : 2 channels
Sampling rate : 44.1 KHz
Resolution : 16 bits
Stream size : 1.02MiB(6%)
Language : Russian









Милый друг, уважаемые господа, товарищи, леди энд джентельмены !!!

К нашему и вашему величайшему горю клип Хаки - 20 00 сейчас пока выглядит
так, как вы его видите.
Приносим вам глубочайшие извинения за это недоразумение.
Одновременно с этим мы вам выдаем сто процентную гарантию, что как только появится фирменный, официальный клип на эту композицию, то мы вам предоставим возможность скачать абсолютно бесплатно клип Хаки - 20 00.
Но сейчас пока мы можем предоставить вам возможность скачать бесплатно mp3 Хаки - 20 00. Для этого воспользуйтесь окном поиска на нашем сайте.

Категория: Клипы | Добавил: admin (02.08.2010)
Просмотров: 572