Клип Григорий Лепс - Я тебя не люблю (Лепсвиридзе) - Клипы - СКАЧАТЬ КЛИПЫ БЕСПЛАТНО - BAM.DO.AM
Главная » Статьи » Клипы

Клип Григорий Лепс - Я тебя не люблю (Лепсвиридзе)
Информация о файле:

Format : AVI
Format/Info : Audio Video Interleave
File size : 1.06MiB
Duration : 4m 23s
Overall bit rate : 555 Kbps
Movie name : 123.flv

Video #0
ID : 0
Format : MPEG-4 Visual
Format profile : 5imple(g>Ll
Format settings, EVOP : No
Format settings, QPel : No
Format settings, GMC : No warppomts
Format settings, Matrix : Default (H.263)
Codec ID : DX50
Codec ID/Hint : DivX 5
Duration : 4m 23s
Bit rate : 1 029 Kbps
Width : 384 pixels
Height : 288 pixels
Display aspect ratio : 4:3
Frame rate : 25.000 fps
Resolution : 24 bits
Colonmetry : 4:2:0
Scan type : Progressive
Bits/(Pixel*Frame) : 0.372
Stream size : 1 005 KiB

Audio #1
ID : 1
Format : MPEG Audio
Format version : Version 2
Format profile : Layer 3
Codec ID : 55
Codec ID/Hint : MP3
Duration : 4m 23s
Bit rate mode : Constant
Bit rate : 64.0 Kbps
Channel(s) : 2 channels
Sampling rate : 22.05 KHz
Resolution : 16 bits
Stream size : 62.9KiB(6%)
Alignment : Aligned on interleaves
Interleave, duration : 26 ms (0.65 video frame)









Милый друг, уважаемые господа, товарищи, леди энд джентельмены !!!

К нашему и вашему величайшему горю клип Григорий Лепс - Я тебя не люблю (Лепсвиридзе)сейчас пока выглядит
так, как вы его видите.
Приносим вам глубочайшие извинения за это недоразумение.
Одновременно с этим мы вам выдаем сто процентную гарантию, что как только появится фирменный, официальный клип на эту композицию, то мы вам предоставим возможность скачать абсолютно бесплатно клип Григорий Лепс - Я тебя не люблю (Лепсвиридзе).

Категория: Клипы | Добавил: admin (09.07.2010)
Просмотров: 260