Клип Flo Rida feat. David Guetta - Club Cant Handle Me (Флорида Дэвид Гетта) - Клипы - СКАЧАТЬ КЛИПЫ БЕСПЛАТНО - BAM.DO.AM
Главная » Статьи » Клипы

Клип Flo Rida feat. David Guetta - Club Cant Handle Me (Флорида Дэвид Гетта)
Format : AVI
Format/Info : Audio Video Interleave
File size : 1.06MiB
Duration : 4m 06s
Overall bit rate : 555 Kbps
Movie name : 123.flv
Director : created.with.5UP

Video #0
ID : 0
Format : MPEG-4 Visual
Format profile : 5imple(g>Ll
Format settings, EVOP : No
Format settings, QPel : No
Format settings, GMC : No warppomts
Format settings, Matrix : Default (H.263)
Codec ID : DX50
Codec ID/Hint : DivX 5
Duration : 4m 06s
Bit rate : 1 029 Kbps
Width : 384 pixels
Height : 288 pixels
Display aspect ratio : 4:3
Frame rate : 25.000 fps
Resolution : 24 bits
Colonmetry : 4:2:0
Scan type : Progressive
Bits/(Pixel*Frame) : 0.372
Stream size : 1 005 KiB

Audio #1
ID : 1
Format : MPEG Audio
Format version : Version 2
Format profile : Layer 3
Codec ID : 55
Codec ID/Hint : MP3
Duration : 4m 06s
Bit rate mode : Constant
Bit rate : 64.0 Kbps
Channel(s) : 2 channels
Sampling rate : 22.05 KHz
Resolution : 16 bits
Stream size : 62.9KiB(6%)
Alignment : Aligned on interleaves
Interleave, duration : 26 ms (0.65 video frame)

Клип Flo Rida feat. David Guetta - Club Cant Handle Me (Флорида Дэвид Гетта)

Здесь можно скачать Клип Flo Rida feat. David Guetta - Club Cant Handle Me











Клип Flo Rida feat. David Guetta - Club Cant Handle Me (Флорида Дэвид Гетта) предоставлен тебе, только в ознакомительных целях.
Коллектив нашего прекрасного сайта желает вам самых приятных минут во время просматривания этого клипа. Если вам не трудно, то вы можете поделиться со своими друзьями и близкими информацией о нашем сайте.
Ведь вы заметили, что для того чтобы скачать бесплатно музыку на нашем сайте не нужно набирать неразборчивый защитный код или переходить на какой-нибудь наглый файлообменник.
Скачивая этот клип, вы тем самым обязуетесь, что не будете использовать его в коммерческих целях. И обязуетесь, что совершенно добровольно уберёте его со своего компьютера сразу после того, как прослушаете.
Уважаемый пользователь, на нашем сайте вы также сможете ознакомиться с текстом песни

Скачать бесплатно Клип Flo Rida feat. David Guetta - Club Cant Handle Me (Флорида Дэвид Гетта)

Категория: Клипы | Добавил: admin (25.07.2010)
Просмотров: 592 | Теги: Скачать бесплатно Клип Flo Rida fea, Клип Flo Rida feat. David Guetta, Скачать Клип Flo Rida feat. David G