Клип Фабрика - Али баба (Араш) - Клипы - СКАЧАТЬ КЛИПЫ БЕСПЛАТНО - BAM.DO.AM
Главная » Статьи » Клипы

Клип Фабрика - Али баба (Араш)
Информация о видео:

Video #2
ID : 2
Format : AVC
Format/Info : Advanced Video Codec
Format profile : Baselme@Ll.l
Format settings, CAEAC : No
Format settings, ReFrames : 1 frame
Codec ID : avcl
Codec ID/Info : Advanced Video Coding
Duration : 3mn 29s
Bit rate mode : Variable
Bit rate : 242 Kbps
Maximum bit rate : 441 Kbps
Width : 320 pixels
Height : 240 pixels
Display aspect ratio : 4:3
Frame rate mode : Constant
Frame rate : 25.000 fps
Resolution : 24 bits
Colonmetry : 4:2:0
Scan type : Progressive
Bits/(Pixel*Frame) : 0.126
Stream size : 3.21 MiB (66%)
Title : © 2007 Google Inc. v08.13.2007.
Encoded date : UTC 2009-04-08 07:30:59
Tagged date : UTC 2009-04-08 07:30:59 Audio #1
ID : 1
Format : AAC
Format/Info : Advanced Audio Codec
Format version : Version 4
Format profile : LC
Format settings, SBP : No
Codec ID : 40
Duration : 3mn 29s
Bit rate mode : Variable
Bit rate : 121 Kbps
Maximum bit rate : 244 Kbps
Channel(s) : 2 channels
Channel positions : L P
Sampling rate : 44.1 KHz
Resolution : 16 bits
Stream size : 1.61 MiB (33%)
Title : © 2007 Google Inc. v08.13.2007.
Encoded date : UTC 2009-04-08 07:30:58
Tagged date : UTC 2009-04-08 07:30:59

Скачать бесплатно Клип Фабрика - Али баба (Араш)









Милый друг,
Клип Фабрика - Али баба (Араш) предоставлен тебе, только в ознакомительных целях.
Коллектив нашего прекрасного сайта желает вам самых приятных минут во время просматривания этого клипа. Если вам не трудно, то вы можете поделиться со своими друзьями и близкими информацией о нашем сайте.
Ведь вы заметили, что для того чтобы скачать бесплатно музыку на нашем сайте не нужно набирать неразборчивый защитный код или переходить на какой-нибудь наглый файлообменник.
Скачивая этот клип, вы тем самым обязуетесь, что не будете использовать его в коммерческих целях. И обязуетесь, что совершенно добровольно уберёте его со своего компьютера сразу после того, как прослушаете.

Категория: Клипы | Добавил: admin (07.07.2010)
Просмотров: 699