Клип Eminem - cold wind blows - Клипы - СКАЧАТЬ КЛИПЫ БЕСПЛАТНО - BAM.DO.AM
Главная » Статьи » Клипы

Клип Eminem - cold wind blows








Милый друг, уважаемые господа, товарищи, леди энд джентельмены !!!

К нашему и вашему величайшему горю клип Eminem - cold wind blows сейчас пока выглядит
так, как вы его видите.
Приносим вам глубочайшие извинения за это недоразумение.

Format : AVI
Format/Info : Audio Video Interleave
File size : 1 018 KiB
Duration : 5m 03s
Overall bit rate : 548 Kbps
Movie name : lll.flv

Video #0
ID : 0
Format : MPEG-4 Visual
Format profile : 5imple(g>Ll
Format settings, EVOP : No
Format settings, QPel : No
Format settings, GMC : No warppomts
Format settings, Matrix : Default (H.263)
Codec ID : DX50
Codec ID/Hint : DivX 5
Duration : 5m 03s
Bit rate : 1 026 Kbps
Width : 384 pixels
Height : 288 pixels
Display aspect ratio : 4:3
Frame rate : 25.000 fps
Resolution : 24 bits
Colonmetry : 4:2:0
Scan type : Progressive
Bits/(Pixel*Frame) : 0.371
Stream size : 937 KiB (9

Audio #1
ID : 1
Format : MPEG Audio
Format version : Version 2
Format profile : Layer 3
Codec ID : 55
Codec ID/Hint : MP3
Duration : 5m 03s
Bit rate mode : Constant
Bit rate : 64.0 Kbps
Channel(s) : 2 channels
Sampling rate : 22.05 KHz
Resolution : 16 bits
Stream size : 59.4KiB(6%)
Alignment : Aligned on interleaves
Interleave, duration : 26 ms (0.64 video frame)

Категория: Клипы | Добавил: admin (04.07.2010)
Просмотров: 519