Клип Dj piligrim - Да Я (Ди джей Пилигрим) - Клипы - СКАЧАТЬ КЛИПЫ БЕСПЛАТНО - BAM.DO.AM
Главная » Статьи » Клипы

Клип Dj piligrim - Да Я (Ди джей Пилигрим)
Информация о видео:

Format/Info : Audio Video Interleave
File size : l.SQMiB
Duration : 3m 48s
Overall bit rate : 438 Kbps
Movie name : 22222.flv
Director : created.with.5

Video #0
ID : 0
Format : MPEG-4 Visual
Format profile : 5imple(g>Ll
Format settings, EVOP : No
Format settings, QPel : No
Format settings, GMC : No warppomts
Format settings, Matrix : Default (H.263)
Codec ID : DX5Q
Codec ID/Hint : DivX 5
Duration : 3m 48s
Bit rate : 802 Kbps
Width : 384 pixels
Height : 288 pixels
Display aspect ratio : 4:3
Frame rate : 25.000 fps
Resolution : 24 bits
Colonmetry : 4:2:0
Scan type : Progressive
Bits/(Pixel*Frame) : 0.290
Stream size : 1.63 MiB (91%)

Audio #1
ID : 1
Format : MPEG Audio
Format version : Version 2
Format profile : Layer 3
Codec ID : 55
Codec ID/Hint : MP3
Duration : 3m 48s
Bit rate mode : Constant
Bit rate : 64.0 Kbps
Channel(s) : 2 channels
Sampling rate : 22.05 KHz
Resolution : 16 bits
Stream size : 135KiB(7%)
Alignment : Aligned on interleaves
Interleave, duration : 26 ms (0.65 video frame)
Writing library : LAME3.97

Клип Dj piligrim - Да Я

Скачать бесплатно Клип Dj piligrim - Да Я (Ди джей Пилигрим)

Милый друг,
Клип Dj piligrim - Да Я (Ди джей Пилигрим) предоставлен тебе, только в ознакомительных целях.
Коллектив нашего прекрасного сайта желает вам самых приятных минут во время просматривания этого клипа. Если вам не трудно, то вы можете поделиться со своими друзьями и близкими информацией о нашем сайте.
Ведь вы заметили, что для того чтобы скачать бесплатно музыку на нашем сайте не нужно набирать неразборчивый защитный код или переходить на какой-нибудь наглый файлообменник.
Скачивая этот клип, вы тем самым обязуетесь, что не будете использовать его в коммерческих целях. И обязуетесь, что совершенно добровольно уберёте его со своего компьютера сразу после того, как прослушаете.
Уважаемый пользователь, на нашем сайте вы также сможете ознакомиться с текст песни Dj piligrim - Да Я (Ди джей Пилигрим).

Категория: Клипы | Добавил: admin (04.07.2010)
Просмотров: 539