Клип DJ M.E.G. - Только ты (Ди джей МЕГ) - Клипы - СКАЧАТЬ КЛИПЫ БЕСПЛАТНО - BAM.DO.AM
Главная » Статьи » Клипы

Клип DJ M.E.G. - Только ты (Ди джей МЕГ)
Video #2
ID : 2
Format : AVC
Format/Info : Advanced Video Codec
Format profile : Baselme@L2.1
Format settings, CAEAC : No
Format settings, ReFrames : 1 frame
Codec ID : avcl
Codec ID/Info : Advanced Video Coding
Duration : 3mn 40s
Bit rate mode : Variable
Bit rate : 501 Kbps
Maximum bit rate : 948 Kbps
Width : 480 pixels
Height : 360 pixels
Display aspect ratio : 4:3
Frame rate mode : Constant
Frame rate : 25.000 fps
Resolution : 24 bits
Colonmetry : 4:2:0
Scan type : Progressive
Bits/(Pixel*Frame) : 0.116
Stream size : 10.8 MiB (80%)
Title : © 2007 Google Inc. v06.24.2007.
Encoded date : UTC 2007-09-13 21:04:40
Tagged date : UTC 2007-09-13 21:04:41 Audio #1
ID : 1
Format : AAC
Format/Info : Advanced Audio Codec
Format version : Version 4
Format profile : LC
Format settings, SBP : No
Codec ID : 40
Duration : 3mn 40s
Bit rate mode : Variable
Bit rate : 121 Kbps
Maximum bit rate : 131 Kbps
Channel(s) : 2 channels
Channel positions : L P
Sampling rate : 44.1 KHz
Resolution : 16 bits
Stream size : 2.60 MiB (19%)
Title : © 2007 Google Inc. v06.24.2007.
Encoded date : UTC 2007-09-13 21:04:40
Tagged date : UTC 2007-09-13 21:04:41

Скачать бесплатно Клип DJ M.E.G. - Только ты (Ди джей МЕГ)









Милый друг,
Клип DJ M.E.G. - Только ты (Ди джей МЕГ)предоставлен тебе, только в ознакомительных целях.
Коллектив нашего прекрасного сайта желает вам самых приятных минут во время просматривания этого клипа. Если вам не трудно, то вы можете поделиться со своими друзьями и близкими информацией о нашем сайте.
Ведь вы заметили, что для того чтобы скачать бесплатно музыку на нашем сайте не нужно набирать неразборчивый защитный код или переходить на какой-нибудь наглый файлообменник.
Скачивая этот клип, вы тем самым обязуетесь, что не будете использовать его в коммерческих целях. И обязуетесь, что совершенно добровольно уберёте его со своего компьютера сразу после того, как прослушаете.

Категория: Клипы | Добавил: admin (11.07.2010)
Просмотров: 1162