Клип Антон Макарский - Прощай любовь - Клипы - СКАЧАТЬ КЛИПЫ БЕСПЛАТНО - BAM.DO.AM
Главная » Статьи » Клипы

Клип Антон Макарский - Прощай любовь
На этой странице вы сможете послушать бесплатно Клип Антон Макарский - Прощай любовь

Информация о видео:

Формат: Windows Media
File size : 20.2 MiE
Продолжительность: 2mn 53s
Overall bit rate mode : Constant
Overall Битрейт: 1 042 Kbps
Maximum Overall bit rate : 1 140 Kbps
Encoded date : UTC 2009-07-10 12:54:38.421
Application : Windows Movie Maker 2.1.4026.0

Video #2
ID : 2
Формат: VC-1
Format profile : MP@ML
Codec ID : WMV3
Codec ID/Info : Windows Media Video 9
Codec ID/Hint : WMV3
Description of the codec : Windows Media Video 9
Продолжительность: 2mn 53s
Bit rate mode : Constant
Битрейт: 1 000 Kbps
Ширина: 640 pixels
Высота: 480 pixels
Display aspect ratio : 4:3
Frame rate : 25.000 fps
Resolution : 24 bits
Scan type : Progressive
Bits/(Pixel*Frame) : 0.130
Stream size : 19.4MiB(96%)
Language : Russian

Audio #1
ID : 1
Формат: WMA2
Format profile : LI
Codec ID : 161
Codec ID/Info : Windows Media Audio 2
Description of the codec : Windows Media Audio 9.2-128 kbps, 44 kHz, stereo (A/V) 1-pass CBP
Продолжительность: 2mn 53s
Bit rate mode : Constant
Битрейт: 128 Kbps
Channel(s) : 2 channels
Sampling rate : 44.1 KHz
Resolution : 16 bits
Stream size : 2.48MiB(12%)
Language : Russian










Милый друг,
Клип Антон Макарский - Прощай любовь предоставлен тебе, только в ознакомительных целях.
Коллектив нашего прекрасного сайта желает вам самых приятных минут во время просматривания этого клипа. Если вам не трудно, то вы можете поделиться со своими друзьями и близкими информацией о нашем сайте.
Ведь вы заметили, что для того чтобы скачать бесплатно музыку на нашем сайте не нужно набирать неразборчивый защитный код или переходить на какой-нибудь наглый файлообменник.
Скачивая этот клип, вы тем самым обязуетесь, что не будете использовать его в коммерческих целях. И обязуетесь, что совершенно добровольно уберёте его со своего компьютера сразу после того, как прослушаете.
Уважаемый пользователь, на нашем сайте вы также сможете ознакомиться с текст песни Антон Макарский - Прощай любовь.

Категория: Клипы | Добавил: admin (12.06.2010)
Просмотров: 570