Клип Алисия - Колыбельная - Клипы - СКАЧАТЬ КЛИПЫ БЕСПЛАТНО - BAM.DO.AM
Главная » Статьи » Клипы

Клип Алисия - Колыбельная
Здесь скачать бесплатно Клип Алисия - Колыбельная

Клип Алисия - Колыбельная











Милый друг,
Клип Алисия - Колыбельная предоставлен тебе, только в ознакомительных целях.
Коллектив нашего прекрасного сайта желает вам самых приятных минут во время просматривания этого клипа. Если вам не трудно, то вы можете поделиться со своими друзьями и близкими информацией о нашем сайте.
Ведь вы заметили, что для того чтобы скачать бесплатно музыку на нашем сайте не нужно набирать неразборчивый защитный код или переходить на какой-нибудь наглый файлообменник.
Скачивая этот клип, вы тем самым обязуетесь, что не будете использовать его в коммерческих целях. И обязуетесь, что совершенно добровольно уберёте его со своего компьютера сразу после того, как прослушаете.

Информация о видео:

Format/Info : Audio Video Interleave
File size : 8.62 MiB
Duration : 2mn 13s
Overall bit rate : 540 Kbps
Movie name :
ID : 0
Format : MPEG-4 Visual
Format profile : 5imple(g>Ll
Format settings, EVOP : No
Format settings, QPel : No
Format settings, GMC : No warppomts
Format settings, Matrix : Default (H.263)
Codec ID : DX5Q
Codec ID/Hint : DivX 5
Duration : Imn 6s
Bit rate : 1 009 Kbps
Width : 384 pixels
Height : 288 pixels
Display aspect ratio : 4:3
Frame rate : 25.000 fps
Resolution : 24 bits
Colonmetry : 4:2:0
Scan type : Progressive
Bits/(Pixel*Frame) : 0.365
Stream size : 7.99MiB(93%)
Writing library
ID : 1
Format : MPEG Audio
Format version : Version 2
Format profile : Layer 3
Codec ID : 55
Codec ID/Hint : MP3
Duration : 2mn 13s
Bit rate mode : Constant
Bit rate : 64.0 Kbps
Channel(s) : 2 channels
Sampling rate : 22.05 KHz
Resolution : 16 bits
Stream size : 523 KiB (6%)
Alignment : Aligned on interleaves
Interleave, duration : 26 ms (0.65 video frame)

Скачать бесплатно Клип Алисия - Колыбельная

Категория: Клипы | Добавил: admin (13.06.2010)
Просмотров: 613 | Теги: Скачать бесплатно Клип Алисия - Кол, Скачать Клип Алисия - Колыбельная, Клип Алисия - Колыбельная